#TITLE:Going On Spring Wind;
#SUBTITLE:;
#ARTIST:tomsfir;
#TITLETRANSLIT:;
#SUBTITLETRANSLIT:;
#ARTISTTRANSLIT:;
#CREDIT:;
#BANNER:Going.bn.png;
#BACKGROUND:Going.bg.png;
#LYRICSPATH:;
#CDTITLE:;
#MUSIC:Going on spring wind.mp3;
#OFFSET:0.000;
#SAMPLESTART:50.000;
#SAMPLELENGTH:12.000;
#SELECTABLE:YES;
#BPMS:0.000=282.000;
#STOPS:;
#BGCHANGES:;
// cache tags:
#FIRSTBEAT:19.000;
#LASTBEAT:666.000;
#SONGFILENAME:Songs/Music V.I.P ^_^/Going On Spring Wind [Linus]/going.sm;
#HASMUSIC:1;
#HASBANNER:1;
#MUSICLENGTH:143.313;
// end cache tags

//---------------dance-single - ----------------
#NOTES:
     dance-single:
     :
     Challenge:
     14:
     1.000,1.000,1.000,0.635,1.000,1141.000,221.000,91.000,0.000,38.000:  // measure 1
0000
0000
0000
0000
,  // measure 2
0000
0000
0000
0000
,  // measure 3
0000
0000
0000
0000
,  // measure 4
0000
0000
0000
0000
,  // measure 5
0000
0000
0000
0000
0000
0000
0000
0000
0000
1001
0100
0010
,  // measure 6
0101
0000
1000
0011
0000
0100
0001
0000
1000
0011
0000
0100
,  // measure 7
0001
0000
1000
0011
0000
0100
0001
0000
1000
0011
0000
0100
,  // measure 8
0001
0000
1000
0011
0000
0100
0001
0000
0000
0001
1000
0100
,  // measure 9
0011
0100
1000
0101
1000
0100
1001
0100
0000
0001
0000
0000
,  // measure 10
0011
0000
0000
0011
0000
0100
0010
0100
0010
0100
0010
0100
,  // measure 11
1010
0000
0100
1000
0000
0100
1000
0000
0100
1001
0000
0100
,  // measure 12
1001
0000
0100
1001
0010
0100
1001
0100
0010
1001
0010
0100
,  // measure 13
1001
0000
0100
0001
0010
1000
0100
1000
0010
1001
0000
0001
,  // measure 14
1001
0000
0100
0010
0001
1000
0100
0010
0001
0010
1000
0100
,  // measure 15
0011
0100
0001
1000
0010
0100
1001
0000
0100
1001
0000
0010
,  // measure 16
1101
0000
1100
0000
1100
0000
1100
0000
1100
0000
1100
0000
,  // measure 17
1010
0000
1010
0000
1001
0000
1101
0000
0000
0010
0000
0001
,  // measure 18
1000
0000
0010
0001
0000
1000
0000
0000
0010
0001
0000
1000
,  // measure 19
0000
0000
1000
0002
0000
0000
0023
0000
0000
0230
0000
0000
,  // measure 20
0310
0000
0000
0000
1000
0100
0010
0000
0000
0000
0001
0000
0000
0000
0000
0000
0001
0000
0010
0000
0000
0000
1000
0000
,  // measure 21
0200
0000
0000
0000
0000
0000
0300
0000
0000
0010
0001
0000
0000
0000
0000
0000
0000
0000
0010
0000
0001
0000
1000
0000
,  // measure 22
0000
0000
0010
0001
0000
1000
0000
0000
0010
0001
0000
1000
,  // measure 23
0000
0000
1000
0002
0000
0000
0023
0000
0000
0230
0000
0000
,  // measure 24
2300
0000
0000
0000
0000
0000
0000
0000
0000
3000
1000
0100
,  // measure 25
0010
0001
1000
0001
1000
0001
1000
0001
0000
0010
0000
0001
,  // measure 26
1000
0000
0010
0001
0000
1000
0000
0000
0010
0001
0000
1000
,  // measure 27
0000
0000
1000
0002
0000
0000
0023
0000
0000
0230
0000
0000
,  // measure 28
0310
0000
0000
0000
1000
0100
0010
0000
0000
0000
0001
0000
0000
0000
0000
0000
0001
0000
0010
0000
0000
0000
1000
0000
,  // measure 29
0200
0000
0000
0000
0000
0000
0300
0000
0000
0010
0001
0000
0000
0000
0000
0000
0000
0000
0010
0000
0001
0000
1000
0000
,  // measure 30
0000
0000
0010
0001
0000
1000
0000
0000
0010
0001
0000
1000
,  // measure 31
0000
0000
1000
0001
0000
0001
0020
0000
0000
0230
0000
0000
,  // measure 32
2300
0000
0000
0000
0000
0000
0000
0000
0000
3000
1000
0100
,  // measure 33
0010
0001
1000
0001
1000
0001
1000
0001
0000
0100
0000
0010
,  // measure 34
1002
1003
1000
1200
,  // measure 35
1320
0000
0000
1032
0000
0000
1013
0000
0100
1000
0000
0002
,  // measure 36
1000
0000
0000
1000
0000
0003
1000
0000
0000
1002
0000
0000
,  // measure 37
1023
0000
0000
1230
0000
0000
1310
0000
0001
1000
0000
0020
,  // measure 38
1000
0000
0000
1000
0000
0030
1000
0000
0000
1020
0000
0000
,  // measure 39
1032
0000
0000
1203
0000
0000
1310
0000
0100
1000
0000
0002
,  // measure 40
1000
0000
0000
1000
0000
0003
1100
0000
0010
1000
0000
0200
,  // measure 41
1000
0000
0000
1000
0000
0300
1000
0000
0000
1001
0010
0100
,  // measure 42
1001
0000
1000
0100
0000
0010
1000
0001
0010
0100
0000
1001
,  // measure 43
0000
0000
1000
0100
0000
0100
1001
0010
0100
1000
0000
1001
,  // measure 44
0000
0000
1000
0100
0010
0001
1100
0001
0010
0100
0000
1001
,  // measure 45
0000
0000
1000
0100
0001
0010
1100
0001
0010
0100
0010
1001
,  // measure 46
0000
0000
1000
0100
0001
0010
1100
0010
0001
0100
0000
1001
,  // measure 47
0000
0000
1000
0001
0100
0010
1001
0010
1000
0100
0000
1001
,  // measure 48
0000
0000
0010
0100
1001
0010
0100
1001
0010
1000
0000
1001
,  // measure 49
0000
0000
0100
1001
0010
0100
1001
0010
0100
0100
0000
0000
,  // measure 50
1001
0000
0010
0000
0000
1010
0100
0000
0010
0000
0000
1010
,  // measure 51
0000
0000
1010
0000
0000
1010
0100
0000
0010
1000
0000
0010
,  // measure 52
1000
0000
0010
0000
0000
1010
0100
0000
0010
0000
0000
1010
,  // measure 53
0000
0000
1010
0000
0000
1010
0100
0000
0010
1101
0010
0100
,  // measure 54
1001
0000
0100
1010
0000
0001
1000
0000
0100
1010
0000
0001
,  // measure 55
1000
0000
0001
1010
0000
0000
1200
0000
0000
1320
0000
0000
,  // measure 56
1032
0000
0000
1000
0000
0000
1003
0000
0000
1100
0010
0001
,  // measure 57
1100
0010
0100
1010
0100
0010
1100
0000
0000
1100
0000
0001
,  // measure 58
1010
0000
0010
1001
0000
0100
1000
0000
0010
1001
0000
0100
,  // measure 59
1000
0000
0100
1002
0000
0000
1023
0000
0000
1230
0000
0000
,  // measure 60
1310
0000
0000
0000
0001
0100
1010
0000
0000
0000
0001
0000
1000
0000
0000
0000
0001
0000
1010
0000
0000
0000
0010
0000
,  // measure 61
1200
0000
0000
0000
0000
0000
1300
0000
0000
0010
0001
0000
1000
0000
0000
0000
0000
0000
1010
0000
0001
0000
0100
0000
,  // measure 62
1000
0000
0010
1001
0000
0100
1000
0000
0010
1001
0000
0100
,  // measure 63
1000
0000
0010
1002
0000
0000
1023
0000
0000
1230
0000
0000
,  // measure 64
1320
0000
0000
1000
0000
0000
1000
0000
0000
1130
0010
0001
,  // measure 65
1100
0010
0100
1010
0100
0010
1101
0010
0100
1001
0100
0010
,  // measure 66
1002
0000
0000
1003
0000
0100
0000
0000
0001
0010
1100
0001
,  // measure 67
0200
1000
0302
1000
,  // measure 68
0203
0000
0000
1300
0000
0010
0000
0000
0001
0010
1100
0001
,  // measure 69
0200
1000
0302
1000
,  // measure 70
0203
0000
0000
1300
0000
0010
0000
0000
0100
0011
0100
0001
,  // measure 71
1000
0000
0000
0010
0000
0100
0000
0000
0001
1010
0001
0010
,  // measure 72
0100
0000
0000
1000
0000
0001
0000
0000
1000
0011
0100
0001
,  // measure 73
1000
0100
1000
0101
0010
0100
0010
0001
1010
0101
0010
1000
,  // measure 74
0002
0000
0000
1003
0000
0010
0000
0000
0100
1010
0001
0100
,  // measure 75
0002
1000
0023
1000
,  // measure 76
0032
0000
0000
1003
0000
0010
0000
0000
0100
1010
0001
0100
,  // measure 77
0002
1000
0203
1000
,  // measure 78
0320
0000
0000
0130
0000
0001
0000
0000
1000
0011
1000
0010
,  // measure 79
0100
0000
0000
0000
0000
0010
0000
0000
1000
0011
1000
0010
,  // measure 80
1101
0000
0000
0000
1000
0100
0010
0100
0010
0001
0010
0100
,  // measure 81
0011
1000
0001
0100
0010
1100
0001
0010
0100
1010
0001
0010
,  // measure 82
1100
0001
1000
0110
0001
0010
1000
0010
0001
0110
0001
0100
,  // measure 83
1001
0100
0001
1100
0010
0001
1100
0010
0001
1010
0100
0001
,  // measure 84
1010
0000
0000
0000
1000
0000
0000
0000
0000
1000
0000
0000
0000
1000
0000
0000
0000
0000
1000
0000
0000
0000
0000
0000
,  // measure 85
0100
0000
0000
0000
0000
0100
0000
0000
0000
0000
0100
0000
0100
0000
0100
0000
0100
0000
0100
0000
0100
0000
0100
0000
,  // measure 86
0100
0100
0110
0100
0000
1100
0000
0000
0011
0000
0000
0110
,  // measure 87
0000
0000
1100
0000
0000
1101
0000
0000
1111
0000
0000
0000
,  // measure 88
0000
0000
1000
0000
0000
1000
0000
0000
1000
0000
0000
1000
,  // measure 89
0000
0000
0010
0010
0010
0010
0010
0010
0010
0010
0010
0010
,  // measure 90
0010
0010
0010
0001
0100
1000
0001
0010
0100
0100
0100
0100
,  // measure 91
0100
0000
0000
0011
0000
0010
0100
1000
1000
1000
1000
1000
,  // measure 92
1000
0001
0010
0100
0001
0010
0100
0001
0010
0100
1000
0101
,  // measure 93
0000
0000
0101
0000
0000
0101
0000
0000
0101
0000
0000
0000
,  // measure 94
0000
0000
0001
0001
0001
0001
0001
0000
0000
0001
0001
0001
,  // measure 95
0001
1000
0100
1000
0100
1000
0100
1000
0100
0010
0010
0010
,  // measure 96
0010
0010
0000
0010
0000
0000
0010
0000
0000
0010
0000
0000
,  // measure 97
0010
0010
0010
0010
,  // measure 98
1000
0000
0000
0000
0000
0000
1000
0000
0000
0000
0000
0000
1000
0000
0000
0000
1000
0000
1000
0000
0000
0000
0000
0100
,  // measure 99
1000
0000
0000
0000
0000
0000
1000
0000
0000
0000
0000
0000
1000
0000
0000
0000
1000
0100
1001
0000
0000
0000
0000
0000
,  // measure 100
0000
0000
1000
0100
0000
0100
0010
0000
0010
0001
0000
0001
,  // measure 101
1000
0000
0100
0000
0000
0010
0000
0000
0100
0010
0001
0100
,  // measure 102
1000
0000
0110
0110
0000
0001
0000
0000
0110
0110
0000
1001
,  // measure 103
0000
0000
0001
0100
0000
0001
0100
0000
0100
0001
1000
0010
,  // measure 104
0001
0000
0010
1000
0000
0001
0100
0000
1000
0100
0000
1000
,  // measure 105
0010
0000
1000
0001
0000
1000
0100
0000
0001
0010
0000
0001
,  // measure 106
0100
0010
0001
0100
0010
0001
0100
0010
0001
0100
0010
0001
,  // measure 107
1000
0000
1000
0000
0000
1000
0000
0010
0100
0001
0010
0100
,  // measure 108
0010
0100
1000
0010
0100
1000
0010
0100
1000
0010
0100
1000
,  // measure 109
0100
0010
0001
0010
0001
1000
0000
0000
0001
0010
0100
0001
,  // measure 110
1000
0000
0001
1000
0000
0001
0100
0000
0001
0010
0000
0100
,  // measure 111
0010
0000
1100
0011
0000
1100
0011
0000
1100
0011
0000
1100
,  // measure 112
0010
1000
0100
0010
0000
0010
0001
1000
0100
0010
0000
1000
,  // measure 113
0100
0000
0010
0001
0000
0100
0010
0000
0100
0010
0001
0100
,  // measure 114
0010
1000
0100
0010
0001
1000
0100
1000
0100
0010
0000
0110
,  // measure 115
0000
0000
0110
0110
0000
0000
0110
0000
0000
0000
0000
0000
,  // measure 116
1001
0010
0100
0001
0010
0100
0001
0010
0100
0001
0010
0100
,  // measure 117
1001
0000
1100
1100
0000
0000
1101
0010
0100
1000
0100
0010
,  // measure 118
1101
1002
0000
0000
1003
0000
0100
0000
0000
0001
0010
1100
,  // measure 119
0001
0200
0000
0000
1000
0000
0000
0302
0000
0000
1000
0000
,  // measure 120
0000
0203
0000
0000
1300
0000
0010
0000
0000
0001
0010
1100
,  // measure 121
0001
0200
0000
0000
1000
0000
0000
0302
0000
0000
1000
0000
,  // measure 122
0000
0203
0000
0000
1300
0000
0010
0000
0000
0100
0011
0100
,  // measure 123
0001
1000
0000
0000
0010
0000
0100
0000
0000
0001
1010
0001
,  // measure 124
0010
0100
0000
0000
1000
0000
0001
0000
0000
1000
0011
0100
,  // measure 125
0001
1000
0100
1000
0101
0010
0100
0010
0001
1010
0101
0010
,  // measure 126
1000
0002
0000
0000
1003
0000
0010
0000
0000
0100
1010
0001
,  // measure 127
0100
0002
0000
0000
1000
0000
0000
0023
0000
0000
1000
0000
,  // measure 128
0000
0032
0000
0000
1003
0000
0010
0000
0000
0100
1010
0001
,  // measure 129
0100
0002
0000
0000
1000
0000
0000
0203
0000
0000
1000
0000
,  // measure 130
0000
0320
0000
0000
0130
0000
0001
0000
0000
1000
0011
1000
,  // measure 131
0010
0100
0000
0000
0000
0000
0010
0000
0000
1000
0011
1000
,  // measure 132
0010
1101
0000
0000
1000
0100
0010
0100
0010
0001
0010
0100
,  // measure 133
0011
1000
0001
0100
0010
1100
0001
0010
0100
1010
0001
0010
,  // measure 134
1100
0001
1000
0110
0001
0010
1000
0010
0001
0110
0001
0100
,  // measure 135
1001
0100
0001
1100
0010
0001
1100
0010
0001
0110
0000
0001
,  // measure 136
1000
0000
0010
0001
0000
1000
0000
0000
0010
0001
0000
1000
,  // measure 137
0000
0000
1000
0002
0000
0000
0023
0000
0000
0230
0000
0000
,  // measure 138
0310
0000
0000
0000
1000
0100
0010
0000
0000
0000
0001
0000
0000
0000
0000
0000
0001
0000
0010
0000
0000
0000
1000
0000
,  // measure 139
0200
0000
0000
0000
0000
0000
0300
0000
0000
0010
0001
0000
0000
0000
0000
0000
0000
0000
0010
0000
0001
0000
1000
0000
,  // measure 140
0000
0000
0010
0001
0000
1000
0000
0000
0010
0001
0000
1000
,  // measure 141
0000
0000
1000
0002
0000
0000
0023
0000
0000
0230
0000
0000
,  // measure 142
2300
0000
0000
0000
0000
0000
0000
0000
0000
3000
1000
0100
,  // measure 143
0010
0001
1000
0001
1000
0001
1000
0001
0000
0010
0000
0001
,  // measure 144
1000
0000
0010
0001
0000
1000
0000
0000
0010
0001
0000
1000
,  // measure 145
0000
0000
1000
0002
0000
0000
0023
0000
0000
0230
0000
0000
,  // measure 146
0310
0000
0000
0000
1000
0100
0010
0000
0000
0000
0001
0000
0000
0000
0000
0000
0001
0000
0010
0000
0000
0000
1000
0000
,  // measure 147
0200
0000
0000
0000
0000
0000
0300
0000
0000
0010
0001
0000
0000
0000
0000
0000
0000
0000
0010
0000
0001
0000
1000
0000
,  // measure 148
0000
0000
0010
0001
0000
1000
0000
0000
0010
0001
0000
1000
,  // measure 149
0000
0000
1000
0001
0000
0001
0020
0000
0000
0230
0000
0000
,  // measure 150
2300
0000
0000
0000
0000
0000
0000
0000
0000
3000
1000
0100
,  // measure 151
0010
0001
1000
0001
1000
0001
1000
0001
0000
0000
0000
0000
,  // measure 152
2010
0000
0010
0000
,  // measure 153
0010
0000
3210
0000
,  // measure 154
2310
0000
0010
0000
,  // measure 155
0010
0000
3012
0000
,  // measure 156
2013
0000
0010
0000
,  // measure 157
0010
0000
3210
0000
,  // measure 158
2310
0000
0010
0000
,  // measure 159
0010
0000
0000
0000
0000
0000
3012
0000
0000
0000
0000
1000
,  // measure 160
1013
0000
0000
0110
0000
0000
0010
0000
0000
0110
0000
0001
,  // measure 161
0010
0000
0001
0110
0000
0001
0000
0000
0001
0110
0000
0001
,  // measure 162
0010
0000
0000
0110
0000
0001
0000
0000
0001
0110
0000
0001
,  // measure 163
0010
0000
0001
0110
0000
0001
0010
0000
0000
0101
0010
0001
,  // measure 164
0010
0000
0001
0110
0000
0000
0010
0000
0000
0110
0000
0001
,  // measure 165
0010
0000
0001
0110
0000
0001
0000
0000
0001
0110
0000
0001
,  // measure 166
1100
0010
0001
0100
0010
0001
0100
0010
1001
0100
0010
1001
,  // measure 167
0100
0010
1001
1101
0000
0000
1111
0000
0000
0000
0000
0000
;

//---------------dance-single - ----------------
#NOTES:
     dance-single:
     :
     Hard:
     12:
     1.000,1.000,0.551,0.740,1.000,941.000,79.000,106.000,0.000,1.000:  // measure 1
0000
0000
0000
0000
,  // measure 2
0000
0000
0000
0000
,  // measure 3
0000
0000
0000
0000
,  // measure 4
0000
0000
0000
0000
,  // measure 5
0000
0000
0000
0000
0000
0000
0000
0000
0000
1001
0100
0010
,  // measure 6
0101
0000
1000
0001
0000
0100
0001
0000
1000
0001
0000
0100
,  // measure 7
0001
0000
1000
0001
0000
0100
0001
0000
1000
0001
0000
0100
,  // measure 8
0001
0000
1000
0001
0000
0100
0001
0000
0000
0001
1000
0100
,  // measure 9
0010
0100
0000
0100
0000
0100
0000
0100
0000
0000
0000
0000
,  // measure 10
0011
0000
0000
0011
0000
0100
0010
0100
0010
0100
0010
0100
,  // measure 11
1010
0000
0100
1000
0000
0100
1000
0000
0100
1000
0000
0100
,  // measure 12
1000
0000
0100
1000
0010
0100
1000
0100
0010
0001
0010
0100
,  // measure 13
1001
0000
0100
0001
0010
1000
0100
1000
0010
0001
0000
0001
,  // measure 14
1001
0000
0100
0010
0001
1000
0100
0010
0001
0010
1000
0100
,  // measure 15
0001
0100
0001
1000
0010
0100
1001
0000
0100
1001
0000
0010
,  // measure 16
1001
0000
1000
0000
1000
0000
1000
0000
1000
0000
1000
0000
,  // measure 17
1010
0000
1010
0000
1001
0000
1001
0000
0000
0010
0000
0001
,  // measure 18
1000
0000
0010
0001
0000
1000
0000
0000
0010
0001
0000
1000
,  // measure 19
0000
0000
1000
0002
0000
0000
0023
0000
0000
0230
0000
0000
,  // measure 20
0310
0000
1000
0010
0000
0001
0000
0000
0001
0010
0000
1000
,  // measure 21
0200
0000
0000
0300
0000
0001
0000
0000
0000
0010
0001
1000
,  // measure 22
0000
0000
0010
0001
0000
1000
0000
0000
0010
0001
0000
1000
,  // measure 23
0000
0000
1000
0002
0000
0000
0023
0000
0000
0230
0000
0000
,  // measure 24
2300
0000
0000
0000
0000
0000
0000
0000
0000
3000
1000
0100
,  // measure 25
0010
0001
0000
0001
0000
0001
0000
0001
0000
0010
0000
0001
,  // measure 26
1000
0000
0010
0001
0000
1000
0000
0000
0010
0001
0000
1000
,  // measure 27
0000
0000
1000
0002
0000
0000
0023
0000
0000
0230
0000
0000
,  // measure 28
0310
0000
1000
0010
0000
0001
0000
0000
0001
0010
0000
1000
,  // measure 29
0200
0000
0000
0300
0000
0001
0000
0000
0000
0010
0001
1000
,  // measure 30
0000
0000
0010
0001
0000
1000
0000
0000
0010
0001
0000
1000
,  // measure 31
0000
0000
1000
0001
0000
0001
0020
0000
0000
0230
0000
0000
,  // measure 32
2300
0000
0000
0000
0000
0000
0000
0000
0000
3000
1000
0100
,  // measure 33
0010
0001
0000
0001
0000
0001
0000
0001
0000
0100
0000
0010
,  // measure 34
0002
0003
0000
2000
,  // measure 35
3020
0000
0000
0032
0000
0000
0013
0000
1000
0000
0000
0002
,  // measure 36
0000
0000
0000
0000
0000
0003
0000
0000
0000
2000
0000
0000
,  // measure 37
3020
0000
0000
0230
0000
0000
0310
0000
0001
0000
0000
0020
,  // measure 38
0000
0000
0000
0000
0000
0030
0000
0000
0000
2000
0000
0000
,  // measure 39
3002
0000
0000
0203
0000
0000
0310
0000
0100
0000
0000
2000
,  // measure 40
0000
0000
0000
0000
0000
3000
0100
0000
0010
0000
0000
0200
,  // measure 41
0000
0000
0000
0000
0000
0300
0000
0000
0000
0001
0010
0100
,  // measure 42
2000
3200
0320
0031
,  // measure 43
0010
0001
0010
0001
,  // measure 44
0010
0001
0010
0100
,  // measure 45
1000
0000
0000
1000
0100
0010
0001
0000
0000
0000
0000
0000
,  // measure 46
1000
0000
0000
0100
0000
0000
0010
0000
0001
0000
0000
0000
,  // measure 47
0010
0000
0000
0000
0001
0000
1000
0000
0100
0000
0000
0000
,  // measure 48
1000
0010
0001
0000
,  // measure 49
0001
0000
0000
0001
0010
0100
1000
0000
0000
0000
0000
0000
,  // measure 50
1001
0000
0010
0000
0000
0010
0000
0000
0010
0000
0000
0010
,  // measure 51
0000
0000
0010
0000
0000
0010
0000
0000
0010
0000
0000
0010
,  // measure 52
0000
0000
0010
0000
0000
0010
0000
0000
0010
0000
0000
0010
,  // measure 53
0000
0000
0010
0000
0000
0010
0000
0000
0010
0101
0010
0100
,  // measure 54
0001
0000
1000
0010
0000
0001
0000
0000
1000
0010
0000
0001
,  // measure 55
0000
0000
0001
0010
0000
0000
2000
0000
0000
3020
0000
0000
,  // measure 56
0032
0000
0000
0000
0000
0000
0003
0000
0000
0100
0010
0001
,  // measure 57
1000
0000
1000
0000
1000
0000
1000
0000
0000
0100
0000
0001
,  // measure 58
0010
0000
1000
0001
0000
0100
0000
0000
0010
0001
0000
1000
,  // measure 59
0000
0000
0100
0002
0000
0000
0023
0000
0000
2030
0000
0000
,  // measure 60
3010
0000
0001
0010
0000
0001
0000
0000
1000
0100
0000
0010
,  // measure 61
0200
0000
0000
0300
0000
0001
0000
0000
0000
0010
0001
1000
,  // measure 62
0000
0000
0010
0001
0000
1000
0000
0000
0010
0001
0000
0100
,  // measure 63
0000
0000
0010
0002
0000
0000
0023
0000
0000
2030
0000
0000
,  // measure 64
3020
0000
0000
0000
0000
0000
0000
0000
0000
1030
0010
0001
,  // measure 65
0100
0000
0100
0000
0100
0000
0101
0010
0100
1001
0100
0010
,  // measure 66
1002
0000
0000
1003
0000
0100
0000
0000
0001
0010
0000
0001
,  // measure 67
0200
1000
0302
1000
,  // measure 68
0203
0000
0000
1300
0000
0010
0000
0000
0001
0010
1000
0001
,  // measure 69
0200
1000
0302
1000
,  // measure 70
0203
0000
0000
1300
0000
0010
0000
0000
0100
0010
0000
0001
,  // measure 71
1000
0000
0000
0010
0000
0100
0000
0000
0001
0010
0000
0010
,  // measure 72
0100
0000
0000
1000
0000
0001
0000
0000
1000
0010
0100
0001
,  // measure 73
1000
0100
1000
0100
0010
0100
0010
0001
0010
0100
0010
0100
,  // measure 74
0002
0000
0000
1003
0000
0010
0000
0000
0100
0010
0000
0100
,  // measure 75
0002
1000
0023
1000
,  // measure 76
0032
0000
0000
1003
0000
0010
0000
0000
0100
1010
0000
0100
,  // measure 77
0002
1000
0203
1000
,  // measure 78
0320
0000
0000
0130
0000
0001
0000
0000
1000
0010
0000
0010
,  // measure 79
0100
0000
0000
0000
0000
0010
0000
0000
1000
0001
0000
0010
,  // measure 80
1001
0000
0000
0000
1000
0100
0010
0100
0010
0001
0010
0100
,  // measure 81
0001
1000
0001
0100
0010
0100
0001
0010
0100
1000
0001
0010
,  // measure 82
1000
0001
1000
0010
0001
0010
1000
0010
0001
0100
0001
0100
,  // measure 83
1000
0100
0001
1000
0010
0001
0100
0010
0001
1000
0100
0001
,  // measure 84
1010
0000
0000
0000
1000
0000
0000
0000
0000
1000
0000
0000
0000
1000
0000
0000
0000
0000
1000
0000
0000
0000
0000
0000
,  // measure 85
0100
0000
0000
0000
0000
0100
0000
0000
0000
0000
0200
0000
0000
0000
0000
0000
0000
0000
0000
0000
0000
0000
0000
0000
,  // measure 86
0000
0000
0010
0300
0000
1001
0000
0000
0011
0000
0000
0110
,  // measure 87
0000
0000
1100
0000
0000
0101
0000
0000
1010
0000
0000
0000
,  // measure 88
0000
0000
1000
0000
0000
1000
0000
0000
1000
0000
0000
1000
,  // measure 89
0000
0000
0020
0000
0000
0000
0000
0000
0000
0000
0000
0000
,  // measure 90
0000
0000
0030
0001
0100
1000
0001
0010
0200
0000
0000
0000
,  // measure 91
0300
0000
0000
0011
0000
0010
0100
2000
0000
0000
0000
0000
,  // measure 92
3000
0001
0010
0100
0001
0010
0100
0001
0010
0100
1000
0101
,  // measure 93
0000
0000
0101
0000
0000
0101
0000
0000
0101
0000
0000
0000
,  // measure 94
0000
0000
0002
0000
0000
0000
0003
0000
0000
0002
0000
0000
,  // measure 95
0003
1000
0100
1000
0100
1000
0100
1000
0100
0020
0000
0000
,  // measure 96
0000
0030
0000
0010
0000
0000
0010
0000
0000
0010
0000
0000
,  // measure 97
0010
0010
0010
0010
,  // measure 98
1000
0000
0000
1000
0000
0000
1000
0000
1000
1000
0000
0000
,  // measure 99
1000
0000
0000
1000
0000
0000
1000
0000
1000
1001
0000
0000
,  // measure 100
0000
0000
1000
0100
0000
0100
0010
0000
0010
0001
0000
0001
,  // measure 101
1000
0000
0100
0000
0000
0010
0000
0000
0100
0010
0001
0100
,  // measure 102
1000
0000
0110
0110
0000
0001
0000
0000
0110
0110
0000
1001
,  // measure 103
0000
0000
0001
0100
0000
0001
0100
0000
0100
0001
1000
0010
,  // measure 104
0001
0000
0010
1000
0000
0001
0100
0000
1000
0100
0000
1000
,  // measure 105
0010
0000
1000
0001
0000
1000
0100
0000
0001
0010
0000
0001
,  // measure 106
0100
0010
0001
0100
0010
0001
0100
0010
0001
0100
0010
0001
,  // measure 107
1000
0000
1000
0000
0000
1000
0000
0010
0100
0001
0010
0100
,  // measure 108
0010
0100
1000
0010
0100
1000
0010
0100
1000
0010
0100
1000
,  // measure 109
0100
0010
0001
0010
0001
1000
0000
0000
0001
0010
0100
0001
,  // measure 110
1000
0000
0001
1000
0000
0001
0100
0000
0001
0010
0000
0100
,  // measure 111
0010
0000
1100
0011
0000
1100
0011
0000
1100
0011
0000
1100
,  // measure 112
0010
1000
0100
0010
0000
0010
0001
1000
0100
0010
0000
1000
,  // measure 113
0100
0000
0010
0001
0000
0100
0010
0000
0100
0010
0001
0100
,  // measure 114
0010
1000
0100
0010
0001
1000
0100
1000
0100
0010
0000
0110
,  // measure 115
0000
0000
0110
0110
0000
0000
0110
0000
0000
0000
0000
0000
,  // measure 116
1001
0010
0100
0001
0010
0100
0001
0010
0100
0001
0010
0100
,  // measure 117
1001
0000
1100
1100
0000
0000
0101
0010
0100
1000
0100
0010
,  // measure 118
0101
1002
0000
0000
1003
0000
0100
0000
0000
0001
0010
0000
,  // measure 119
0001
0200
0000
0000
1000
0000
0000
0302
0000
0000
1000
0000
,  // measure 120
0000
0203
0000
0000
1300
0000
0010
0000
0000
0001
0010
0000
,  // measure 121
0001
0200
0000
0000
1000
0000
0000
0302
0000
0000
1000
0000
,  // measure 122
0000
0203
0000
0000
1300
0000
0010
0000
0000
0100
0001
0000
,  // measure 123
0001
1000
0000
0000
0010
0000
0100
0000
0000
0001
1000
0000
,  // measure 124
0010
0100
0000
0000
1000
0000
0001
0000
0000
1000
0011
0100
,  // measure 125
0001
1000
0100
1000
0100
0010
0100
0010
0001
0010
0100
0010
,  // measure 126
0100
0002
0000
0000
1003
0000
0010
0000
0000
0100
1010
0000
,  // measure 127
0100
0002
0000
0000
1000
0000
0000
0023
0000
0000
1000
0000
,  // measure 128
0000
0032
0000
0000
1003
0000
0010
0000
0000
0100
1010
0000
,  // measure 129
0100
0002
0000
0000
1000
0000
0000
0203
0000
0000
1000
0000
,  // measure 130
0000
0320
0000
0000
0130
0000
0001
0000
0000
1000
0011
0000
,  // measure 131
0010
0100
0000
0000
0000
0000
0010
0000
0000
1000
0011
0000
,  // measure 132
0010
1100
0000
0000
1000
0100
0010
0100
0010
0001
0010
0100
,  // measure 133
0001
1000
0001
0100
0010
1000
0001
0010
0100
1000
0001
0010
,  // measure 134
1000
0001
1000
0100
0001
0010
1000
0010
0001
0100
0001
0100
,  // measure 135
1000
0100
0001
1000
0010
0001
1000
0010
0001
0110
0000
0001
,  // measure 136
1000
0000
0010
0001
0000
1000
0000
0000
0010
0001
0000
1000
,  // measure 137
0000
0000
1000
0002
0000
0000
0023
0000
0000
0230
0000
0000
,  // measure 138
0310
0000
1000
0010
0000
0001
0000
0000
0001
0010
0000
1000
,  // measure 139
0200
0000
0000
0300
0000
0001
0000
0000
0000
0010
0001
1000
,  // measure 140
0000
0000
0010
0001
0000
1000
0000
0000
0010
0001
0000
1000
,  // measure 141
0000
0000
1000
0002
0000
0000
0023
0000
0000
0230
0000
0000
,  // measure 142
2300
0000
0000
0000
0000
0000
0000
0000
0000
3000
1000
0100
,  // measure 143
0010
0001
0000
0001
0000
0001
0000
0001
0000
0010
0000
0001
,  // measure 144
1000
0000
0010
0001
0000
1000
0000
0000
0010
0001
0000
1000
,  // measure 145
0000
0000
1000
0002
0000
0000
0023
0000
0000
0230
0000
0000
,  // measure 146
0310
0000
1000
0010
0000
0001
0000
0000
0001
0010
0000
1000
,  // measure 147
0200
0000
0000
0300
0000
0001
0000
0000
0000
0010
0001
1000
,  // measure 148
0000
0000
0010
0001
0000
1000
0000
0000
0010
0001
0000
1000
,  // measure 149
0000
0000
1000
0001
0000
0001
0020
0000
0000
0230
0000
0000
,  // measure 150
2300
0000
0000
0000
0000
0000
0000
0000
0000
3000
1000
0100
,  // measure 151
0010
0001
0000
0001
0000
0001
0000
0001
0000
0000
0000
0000
,  // measure 152
2000
0000
0000
0000
,  // measure 153
0000
0000
3200
0000
,  // measure 154
2300
0000
0000
0000
,  // measure 155
0000
0000
3002
0000
,  // measure 156
2003
0000
0000
0000
,  // measure 157
0000
0000
3200
0000
,  // measure 158
2300
0000
0000
0000
,  // measure 159
0000
0000
0000
0000
0000
0000
3002
0000
0000
0000
0000
1000
,  // measure 160
1013
0110
0010
0110
,  // measure 161
0010
0110
0000
0110
,  // measure 162
0010
0110
0000
0110
,  // measure 163
0010
0000
0000
0110
0000
0000
0010
0000
0000
0100
0010
0000
,  // measure 164
0010
0110
0010
0110
,  // measure 165
0010
0110
0000
0110
,  // measure 166
1200
0300
0000
0200
0300
0000
0200
0300
0000
0200
0300
0000
,  // measure 167
0200
0300
0000
1001
0000
0000
1001
0000
0000
0000
0000
0000
;

//---------------dance-single - ----------------
#NOTES:
     dance-single:
     :
     Medium:
     10:
     0.813,1.000,0.405,0.768,1.000,648.000,58.000,110.000,0.000,1.000:  // measure 1
0000
0000
0000
0000
,  // measure 2
0000
0000
0000
0000
,  // measure 3
0000
0000
0000
0000
,  // measure 4
0000
0000
0000
0000
,  // measure 5
0000
0000
0000
0000
,  // measure 6
0101
0000
1000
0001
0000
0100
0001
0000
1000
0001
0000
0100
,  // measure 7
0001
0000
1000
0001
0000
0100
0001
0000
1000
0001
0000
0100
,  // measure 8
0001
0000
1000
0001
0000
0100
0001
0000
0000
0001
0000
0000
,  // measure 9
0000
0000
0000
0000
,  // measure 10
0011
0011
0000
0000
,  // measure 11
1100
0000
0000
0000
,  // measure 12
0110
0000
0000
0000
,  // measure 13
1001
0000
0000
0000
,  // measure 14
0110
0000
0000
0000
,  // measure 15
1001
0000
0000
0000
,  // measure 16
1000
0000
0100
0000
1000
0000
0010
0000
0001
0000
0010
0000
,  // measure 17
0101
0000
1010
0000
0101
0000
1010
0000
0000
0010
0000
0001
,  // measure 18
1000
0000
0010
0001
0000
1000
0000
0000
0010
0001
0000
1000
,  // measure 19
0000
0000
1000
0002
0000
0000
0023
0000
0000
0230
0000
0000
,  // measure 20
0310
0000
1000
0010
0000
0001
0000
0000
0001
0010
0000
1000
,  // measure 21
0200
0000
0000
0300
0000
0001
0000
0000
0000
0010
0001
1000
,  // measure 22
0000
0000
0010
0001
0000
1000
0000
0000
0010
0001
0000
1000
,  // measure 23
0000
0000
1000
0002
0000
0000
0023
0000
0000
0230
0000
0000
,  // measure 24
2300
0000
0000
3000
,  // measure 25
0000
0000
0000
0000
0000
0000
0000
0000
0000
0010
0000
0001
,  // measure 26
1000
0000
0010
0001
0000
1000
0000
0000
0010
0001
0000
1000
,  // measure 27
0000
0000
1000
0002
0000
0000
0023
0000
0000
0230
0000
0000
,  // measure 28
0310
0000
1000
0010
0000
0001
0000
0000
0001
0010
0000
1000
,  // measure 29
0200
0000
0000
0300
0000
0001
0000
0000
0000
0010
0001
1000
,  // measure 30
0000
0000
0010
0001
0000
1000
0000
0000
0010
0001
0000
1000
,  // measure 31
0000
0000
1000
0001
0000
0001
0020
0000
0000
0230
0000
0000
,  // measure 32
2300
0000
0000
3000
,  // measure 33
0000
0000
0000
0000
0000
0000
0000
0000
0000
0100
0000
0010
,  // measure 34
0002
0003
0000
2000
,  // measure 35
3020
0000
0000
0032
0000
0000
0013
0000
1000
0000
0000
0002
,  // measure 36
0000
0000
0000
0000
0000
0003
0000
0000
0000
2000
0000
0000
,  // measure 37
3020
0000
0000
0230
0000
0000
0310
0000
0001
0000
0000
0020
,  // measure 38
0000
0000
0000
0000
0000
0030
0000
0000
0000
2000
0000
0000
,  // measure 39
3002
0000
0000
0203
0000
0000
0310
0000
0100
0000
0000
2000
,  // measure 40
0000
0000
0000
0000
0000
3000
0100
0000
0010
0000
0000
0200
,  // measure 41
0000
0000
0000
0000
0000
0000
0000
0000
0000
0000
0300
0000
0000
0000
0000
0000
0000
0000
0001
0000
0000
0100
0000
0000
,  // measure 42
2000
3200
0320
0031
,  // measure 43
0010
0001
0010
0001
,  // measure 44
0010
0001
0010
0100
,  // measure 45
1000
0000
1000
0010
0001
0000
0000
0000
,  // measure 46
1000
0000
0000
0100
0000
0000
0010
0000
0001
0000
0000
0000
,  // measure 47
0010
0000
0000
0000
0001
0000
1000
0000
0100
0000
0000
0000
,  // measure 48
1000
0010
0001
0000
,  // measure 49
0001
0000
0001
0100
1000
0000
0000
0000
,  // measure 50
1001
0000
0000
0000
,  // measure 51
0000
0000
0000
0000
,  // measure 52
0000
0000
0000
0000
,  // measure 53
0000
0000
0000
0000
0000
0000
0000
0000
0000
0000
0010
0000
,  // measure 54
0001
0000
1000
0010
0000
0001
0000
0000
1000
0010
0000
0001
,  // measure 55
0000
0000
0001
0010
0000
0000
2000
0000
0000
3020
0000
0000
,  // measure 56
0032
0000
0003
0000
,  // measure 57
0000
0000
0000
0000
0000
0000
0000
0000
0000
0100
0000
0001
,  // measure 58
0010
0000
1000
0001
0000
0100
0000
0000
0010
0001
0000
1000
,  // measure 59
0000
0000
0100
0002
0000
0000
0023
0000
0000
2030
0000
0000
,  // measure 60
3010
0000
0001
0010
0000
0001
0000
0000
1000
0100
0000
0010
,  // measure 61
0200
0000
0000
0300
0000
0001
0000
0000
0000
0010
0001
1000
,  // measure 62
0000
0000
0010
0001
0000
1000
0000
0000
0010
0001
0000
0100
,  // measure 63
0000
0000
0010
0002
0000
0000
0023
0000
0000
2030
0000
0000
,  // measure 64
3020
0000
0000
0030
,  // measure 65
0000
0000
0000
0000
,  // measure 66
1002
0000
0000
1003
0000
0100
0000
0000
0001
0010
0000
0001
,  // measure 67
0200
1000
0302
1000
,  // measure 68
0203
0000
0000
1300
0000
0010
0000
0000
0001
0010
1000
0001
,  // measure 69
0200
1000
0302
1000
,  // measure 70
0203
0000
0000
1300
0000
0010
0000
0000
0100
0010
0000
0001
,  // measure 71
1000
0000
0000
0010
0000
0100
0000
0000
0001
0010
0000
0010
,  // measure 72
0100
0000
0000
1000
0000
0001
0000
0000
1000
0010
0100
0001
,  // measure 73
1000
0100
0010
0001
,  // measure 74
0002
0000
0000
1003
0000
0010
0000
0000
0100
0010
0000
0100
,  // measure 75
0002
1000
0023
1000
,  // measure 76
0032
0000
0000
1003
0000
0010
0000
0000
0100
1010
0000
0100
,  // measure 77
0002
1000
0203
1000
,  // measure 78
0320
0000
0000
0130
0000
0001
0000
0000
1000
0010
0000
0010
,  // measure 79
0100
0000
0000
0000
0000
0010
0000
0000
1000
0001
0000
0010
,  // measure 80
2002
0000
0000
0000
,  // measure 81
0000
0000
0000
0000
,  // measure 82
0000
0000
0000
0000
,  // measure 83
0000
0000
0000
0000
,  // measure 84
3003
0000
0000
0000
1000
0000
0000
0000
0000
0000
0000
1000
0000
0000
0000
0000
0000
0000
1000
0000
0000
0000
0000
0000
,  // measure 85
0100
0000
0000
0000
0000
0100
0000
0000
0000
0000
0200
0000
0000
0000
0000
0000
0000
0000
0000
0000
0000
0000
0000
0000
,  // measure 86
0000
0000
0010
0300
0000
1001
0000
0000
0011
0000
0000
0110
,  // measure 87
0000
0000
1100
0000
0000
0101
0000
0000
1010
0000
0000
0000
,  // measure 88
0000
0000
1000
0000
0000
1000
0000
0000
1000
0000
0000
1000
,  // measure 89
0000
0000
0020
0000
0000
0000
0000
0000
0000
0000
0000
0000
,  // measure 90
0000
0000
0030
0001
0000
0000
1000
0000
0200
0000
0000
0000
,  // measure 91
0300
0000
0000
0011
0000
0000
0100
2000
0000
0000
0000
0000
,  // measure 92
3000
0001
0000
0000
0001
0000
0000
0001
0000
0000
0000
0101
,  // measure 93
0000
0000
0101
0000
0000
0101
0000
0000
0101
0000
0000
0000
,  // measure 94
0000
0000
0002
0000
0000
0000
0003
0000
0000
0002
0000
0000
,  // measure 95
0003
1000
0000
0100
0000
1000
0000
0100
0000
0020
0000
0000
,  // measure 96
0000
0030
0000
0010
0000
0000
0010
0000
0000
0010
0000
0000
,  // measure 97
0010
0010
0010
0010
,  // measure 98
1000
1000
1000
1000
,  // measure 99
1000
1000
1000
1001
,  // measure 100
0000
0000
1000
0000
0000
0100
0000
0000
0010
0000
0000
0001
,  // measure 101
1000
0000
0100
0000
0000
0010
0000
0000
0100
0010
0000
0100
,  // measure 102
1000
0000
0110
0110
0000
0001
0000
0000
0110
0110
0000
1001
,  // measure 103
0000
0000
0001
0000
0000
0001
0000
0000
0100
0001
0000
0010
,  // measure 104
0001
0000
0010
1000
0000
0001
0100
0000
1000
0000
0000
1000
,  // measure 105
0000
0000
1000
0000
0000
1000
0000
0000
0001
0010
0000
0001
,  // measure 106
0100
0000
0001
0100
0000
0001
0100
0000
0001
0100
0000
0001
,  // measure 107
1000
0000
1000
0000
0000
1000
0000
0010
0100
0000
0010
0100
,  // measure 108
0010
0000
1000
0010
0000
1000
0010
0000
1000
0010
0000
1000
,  // measure 109
0000
0010
0000
0001
0000
1000
0000
0000
0001
0010
0000
0001
,  // measure 110
1000
0000
0001
0000
0000
0001
0000
0000
0001
0000
0000
0100
,  // measure 111
0010
0000
1100
0000
0000
1100
0000
0000
1100
0000
0000
1100
,  // measure 112
0010
0000
0100
0010
0000
0010
0001
0000
0100
0010
0000
1000
,  // measure 113
0100
0000
0010
0001
0000
0100
0010
0000
0100
0010
0000
0100
,  // measure 114
0010
0000
0100
0010
0000
1000
0100
0000
0100
0010
0000
0110
,  // measure 115
0000
0000
0110
0110
0000
0000
0110
0000
0000
0000
0000
0000
,  // measure 116
1001
0000
0100
0001
0000
0100
0001
0000
0100
0001
0000
0100
,  // measure 117
1001
0000
1100
1100
0000
0000
0101
0000
0100
0000
0100
0000
,  // measure 118
0101
1002
0000
0000
1003
0000
0100
0000
0000
0001
0010
0000
,  // measure 119
0001
0200
0000
0000
1000
0000
0000
0302
0000
0000
1000
0000
,  // measure 120
0000
0203
0000
0000
1300
0000
0010
0000
0000
0001
0010
0000
,  // measure 121
0001
0200
0000
0000
1000
0000
0000
0302
0000
0000
1000
0000
,  // measure 122
0000
0203
0000
0000
1300
0000
0010
0000
0000
0100
0001
0000
,  // measure 123
0001
1000
0000
0000
0010
0000
0100
0000
0000
0001
1000
0000
,  // measure 124
0010
0100
0000
0000
1000
0000
0001
0000
0000
1000
0011
0100
,  // measure 125
0001
1000
0000
0000
0100
0000
0000
0010
0000
0000
0001
0000
,  // measure 126
0000
0002
0000
0000
1003
0000
0010
0000
0000
0100
1010
0000
,  // measure 127
0100
0002
0000
0000
1000
0000
0000
0023
0000
0000
1000
0000
,  // measure 128
0000
0032
0000
0000
1003
0000
0010
0000
0000
0100
1010
0000
,  // measure 129
0100
0002
0000
0000
1000
0000
0000
0203
0000
0000
1000
0000
,  // measure 130
0000
0320
0000
0000
0130
0000
0001
0000
0000
1000
0011
0000
,  // measure 131
0010
0100
0000
0000
0000
0000
0010
0000
0000
1000
0011
0000
,  // measure 132
0010
2200
0000
0000
0000
0000
0000
0000
0000
0000
0000
0000
,  // measure 133
0000
0000
0000
0000
,  // measure 134
0000
0000
0000
0000
,  // measure 135
3300
0000
0000
0000
0000
0000
0000
0000
0000
0010
0000
0001
,  // measure 136
1000
0000
0010
0001
0000
1000
0000
0000
0010
0001
0000
1000
,  // measure 137
0000
0000
1000
0002
0000
0000
0023
0000
0000
0230
0000
0000
,  // measure 138
0310
0000
1000
0010
0000
0001
0000
0000
0001
0010
0000
1000
,  // measure 139
0200
0000
0000
0300
0000
0001
0000
0000
0000
0010
0001
1000
,  // measure 140
0000
0000
0010
0001
0000
1000
0000
0000
0010
0001
0000
1000
,  // measure 141
0000
0000
1000
0002
0000
0000
0023
0000
0000
0230
0000
0000
,  // measure 142
2300
0000
0000
3000
,  // measure 143
0000
0000
0000
0000
0000
0000
0000
0000
0000
0010
0000
0001
,  // measure 144
1000
0000
0010
0001
0000
1000
0000
0000
0010
0001
0000
1000
,  // measure 145
0000
0000
1000
0002
0000
0000
0023
0000
0000
0230
0000
0000
,  // measure 146
0310
0000
1000
0010
0000
0001
0000
0000
0001
0010
0000
1000
,  // measure 147
0200
0000
0000
0300
0000
0001
0000
0000
0000
0010
0001
1000
,  // measure 148
0000
0000
0010
0001
0000
1000
0000
0000
0010
0001
0000
1000
,  // measure 149
0000
0000
1000
0001
0000
0001
0020
0000
0000
0230
0000
0000
,  // measure 150
2300
0000
0000
3000
,  // measure 151
0000
0000
0000
0000
,  // measure 152
2000
0000
0000
0000
,  // measure 153
0000
0000
3200
0000
,  // measure 154
2300
0000
0000
0000
,  // measure 155
0000
0000
3002
0000
,  // measure 156
2003
0000
0000
0000
,  // measure 157
0000
0000
3200
0000
,  // measure 158
2300
0000
0000
0000
,  // measure 159
0000
0000
0000
0000
0000
0000
3002
0000
0000
0000
0000
1000
,  // measure 160
1013
0010
0010
0010
,  // measure 161
0010
0010
0000
0010
,  // measure 162
0010
0010
0000
0010
,  // measure 163
0010
0000
0000
0010
0000
0000
0010
0000
0000
0000
0010
0000
,  // measure 164
0010
0010
0010
0010
,  // measure 165
0010
0010
0000
0010
,  // measure 166
1200
0300
0000
0200
0300
0000
0200
0300
0000
0200
0300
0000
,  // measure 167
0200
0300
0000
1001
0000
0000
1001
0000
0000
0000
0000
0000
;

//---------------dance-single - ----------------
#NOTES:
     dance-single:
     :
     Easy:
     8:
     0.595,0.755,1.000,0.202,0.133,340.000,228.000,29.000,0.000,2.000:  // measure 1
0000
0000
0000
0000
,  // measure 2
0000
0000
0000
0000
,  // measure 3
0000
0000
0000
0000
,  // measure 4
0000
0000
0000
0000
,  // measure 5
0000
0000
0000
0000
,  // measure 6
0000
1100
0000
1100
,  // measure 7
0000
0011
0000
0011
,  // measure 8
0000
0110
0000
0110
,  // measure 9
0000
1001
0000
1001
,  // measure 10
0011
0011
0000
0000
,  // measure 11
1100
0000
0000
0000
,  // measure 12
0110
0000
0000
0000
,  // measure 13
1001
0000
0000
0000
,  // measure 14
0110
0000
0000
0000
,  // measure 15
1001
0000
0000
0000
,  // measure 16
1000
0000
0100
0000
1000
0000
0010
0000
0001
0000
0010
0000
,  // measure 17
0101
0000
1010
0000
0101
0000
1010
0000
0000
0000
0000
0000
,  // measure 18
0000
1100
0000
1100
,  // measure 19
0000
0011
0000
0011
,  // measure 20
0000
0110
0000
0110
,  // measure 21
0000
1001
0000
1001
,  // measure 22
0000
1010
0000
1010
,  // measure 23
0000
0101
0000
0101
,  // measure 24
0000
1100
0000
1100
,  // measure 25
0000
0011
0000
0011
,  // measure 26
0000
1100
0000
1100
,  // measure 27
0000
0011
0000
0011
,  // measure 28
0000
0110
0000
0110
,  // measure 29
0000
1001
0000
1001
,  // measure 30
0000
1010
0000
1010
,  // measure 31
0000
0101
0000
0101
,  // measure 32
0000
1100
0000
1100
,  // measure 33
0000
0011
0000
0011
,  // measure 34
0000
1100
0000
1100
,  // measure 35
0000
0011
0000
0011
,  // measure 36
0000
0110
0000
0110
,  // measure 37
0000
1001
0000
1001
,  // measure 38
0000
1010
0000
1010
,  // measure 39
0000
0101
0000
0101
,  // measure 40
0000
1100
0000
1100
,  // measure 41
0000
0000
0011
0000
0000
0000
0011
0100
,  // measure 42
2000
3200
0320
0031
,  // measure 43
0010
0001
0010
0001
,  // measure 44
0010
0001
0010
0100
,  // measure 45
1000
0000
1000
0010
0001
0000
0000
0000
,  // measure 46
1000
0000
0000
0100
0000
0000
0010
0000
0001
0000
0000
0000
,  // measure 47
0010
0000
0000
0000
0001
0000
1000
0000
0100
0000
0000
0000
,  // measure 48
1000
0010
0001
0000
,  // measure 49
0001
0000
0001
0100
1000
0000
0000
0000
,  // measure 50
1001
0000
0000
0000
,  // measure 51
0000
0000
0000
0000
,  // measure 52
0000
0000
0000
0000
,  // measure 53
0000
0000
0000
0000
,  // measure 54
0000
1100
0000
1100
,  // measure 55
0000
0011
0000
0011
,  // measure 56
0000
0110
0000
0110
,  // measure 57
0000
1001
0000
1001
,  // measure 58
0000
1010
0000
1010
,  // measure 59
0000
0101
0000
0101
,  // measure 60
0000
1100
0000
1100
,  // measure 61
0000
0011
0000
0011
,  // measure 62
0000
1100
0000
1100
,  // measure 63
0000
0011
0000
0011
,  // measure 64
0000
0110
0000
0110
,  // measure 65
0000
1001
0000
1001
,  // measure 66
0000
1010
0000
1010
,  // measure 67
0000
0101
0000
0101
,  // measure 68
0000
1100
0000
1100
,  // measure 69
0000
0011
0000
1100
,  // measure 70
0000
1100
0000
0011
,  // measure 71
0000
0011
0000
0110
,  // measure 72
0000
0110
0000
1001
,  // measure 73
0000
1001
0000
1010
,  // measure 74
0000
1010
0000
0101
,  // measure 75
0000
0101
0000
1100
,  // measure 76
0000
1100
0000
0011
,  // measure 77
0000
1100
0000
1100
,  // measure 78
0000
0011
0000
0011
,  // measure 79
0000
0110
0000
0110
,  // measure 80
2002
0000
0000
0000
,  // measure 81
0000
0000
0000
0000
,  // measure 82
0000
0000
0000
0000
,  // measure 83
0000
0000
0000
0000
,  // measure 84
3103
0100
0100
0011
,  // measure 85
0100
0000
0000
0000
0000
0100
0000
0000
0000
0000
0200
0000
0000
0000
0000
0000
0000
0000
0000
0000
0000
0000
0000
0000
,  // measure 86
0000
0000
0010
0300
0000
1001
0000
0000
0011
0000
0000
0110
,  // measure 87
0000
0000
1100
0000
0000
0101
0000
0000
1010
0000
0000
0000
,  // measure 88
0000
0000
1000
0000
0000
1000
0000
0000
1000
0000
0000
1000
,  // measure 89
0000
0000
0020
0000
0000
0000
0000
0000
0000
0000
0000
0000
,  // measure 90
0000
0000
0030
0001
0000
0000
1000
0000
0200
0000
0000
0000
,  // measure 91
0300
0000
0000
0011
0000
0000
0100
2000
0000
0000
0000
0000
,  // measure 92
3000
0001
0000
0000
0001
0000
0000
0001
0000
0000
0000
0101
,  // measure 93
0000
0000
0101
0000
0000
0101
0000
0000
0101
0000
0000
0000
,  // measure 94
0000
0000
0002
0000
0000
0000
0003
0000
0000
0002
0000
0000
,  // measure 95
0003
1000
0000
0100
0000
1000
0000
0100
0000
0020
0000
0000
,  // measure 96
0000
0030
0000
0010
0000
0000
0010
0000
0000
0010
0000
0000
,  // measure 97
0010
0010
0010
0010
,  // measure 98
1000
1000
1000
1000
,  // measure 99
1000
1000
1000
1001
,  // measure 100
0000
1100
0000
1100
,  // measure 101
0000
0011
0000
1100
,  // measure 102
0000
1100
0000
0011
,  // measure 103
0000
0011
0000
0110
,  // measure 104
0000
0110
0000
1001
,  // measure 105
0000
1001
0000
1010
,  // measure 106
0000
1010
0000
0101
,  // measure 107
0000
0101
0000
1100
,  // measure 108
0000
1100
0000
0011
,  // measure 109
0000
1100
0000
1100
,  // measure 110
0000
0011
0000
0011
,  // measure 111
0000
0110
0000
1100
,  // measure 112
0000
1100
0000
0011
,  // measure 113
0000
1100
0000
1100
,  // measure 114
0000
0011
0000
0011
,  // measure 115
0000
0110
0000
0110
,  // measure 116
0000
0000
0000
0000
,  // measure 117
0000
0000
0000
0000
,  // measure 118
0000
0101
0000
0101
,  // measure 119
0000
1100
0000
1100
,  // measure 120
0000
0011
0000
1100
,  // measure 121
0000
1100
0000
0011
,  // measure 122
0000
0011
0000
0110
,  // measure 123
0000
1100
0000
1100
,  // measure 124
0000
0011
0000
1100
,  // measure 125
0000
1100
0000
0011
,  // measure 126
0000
0011
0000
0110
,  // measure 127
0000
0110
0000
1001
,  // measure 128
0000
1001
0000
1010
,  // measure 129
0000
1010
0000
0101
,  // measure 130
0000
0101
0000
1100
,  // measure 131
0000
1100
0000
0011
,  // measure 132
2200
0000
0000
0000
,  // measure 133
0000
0000
0000
0000
,  // measure 134
0000
0000
0000
0000
,  // measure 135
3300
0000
0000
0000
,  // measure 136
0000
1100
0000
1100
,  // measure 137
0000
0011
0000
1100
,  // measure 138
0000
1100
0000
0011
,  // measure 139
0000
0011
0000
0110
,  // measure 140
0000
0110
0000
1001
,  // measure 141
0000
1001
0000
1010
,  // measure 142
0000
1010
0000
0101
,  // measure 143
0000
0101
0000
1100
,  // measure 144
0000
1100
0000
0011
,  // measure 145
0000
1100
0000
1100
,  // measure 146
0000
0011
0000
0011
,  // measure 147
0000
0110
0000
0011
,  // measure 148
0000
1001
0000
1001
,  // measure 149
0000
0011
0000
0011
,  // measure 150
2200
0000
0000
3300
,  // measure 151
0000
0000
0000
0000
,  // measure 152
2000
0000
0000
0000
,  // measure 153
0000
0000
3200
0000
,  // measure 154
2300
0000
0000
0000
,  // measure 155
0000
0000
3002
0000
,  // measure 156
2003
0000
0000
0000
,  // measure 157
0000
0000
3200
0000
,  // measure 158
2300
0000
0000
0000
,  // measure 159
0000
0000
0000
0000
0000
0000
3002
0000
0000
0000
0000
1000
,  // measure 160
1013
0010
0010
0010
,  // measure 161
0010
0010
0000
0010
,  // measure 162
0010
0010
0000
0010
,  // measure 163
0010
0000
0000
0010
0000
0000
0010
0000
0000
0000
0010
0000
,  // measure 164
0010
0010
0010
0010
,  // measure 165
0010
0010
0000
0010
,  // measure 166
1200
0300
0000
0200
0300
0000
0200
0300
0000
0200
0300
0000
,  // measure 167
0200
0300
0000
1001
0000
0000
1001
0000
0000
0000
0000
0000
;
